<?xml version="1.0" standalone="no"?>
<!DOCTYPE svg PUBLIC "-//W3C//DTD SVG 1.1//EN" "http://www.w3.org/Graphics/SVG/1.1/DTD/svg11.dtd" >
<svg xmlns="http://www.w3.org/2000/svg">
<metadata>
This is a custom SVG font generated by IcoMoon.</metadata>
<defs>
<font id="icons" horiz-adv-x="512" >
<font-face units-per-em="512" ascent="480" descent="-32" />
<missing-glyph horiz-adv-x="512" />
<glyph unicode="&#xf0000;" d="M 373.678,341.596c-14.387,14.756-37.765,14.848-52.244,0.184c-14.479-14.633-14.572-38.513-0.184-53.258l 58.255-59.863L 30.208,228.659 
		c-3.523,0.00-6.39-2.079-6.39-4.649c0.00-2.591, 2.867-4.669, 6.39-4.669l 349.307,0.00 L 321.26,159.488c-14.387-14.746-14.295-38.605, 0.184-53.268
		c 7.178-7.281, 16.609-10.936, 26.01-10.936c 9.513,0.00, 18.985,3.707, 26.235,11.141l 114.504,117.586L 373.678,341.596z" />
<glyph unicode="&#xf0001;" d="M 138.322,341.596c 14.387,14.756, 37.765,14.848, 52.244,0.184c 14.479-14.633, 14.572-38.513, 0.184-53.258l-58.255-59.863L 481.792,228.659 
		c 3.523,0.00, 6.39-2.079, 6.39-4.649c0.00-2.591-2.867-4.669-6.39-4.669L 132.475,219.341 l 58.266-59.853c 14.387-14.746, 14.295-38.605-0.184-53.268
		c-7.178-7.281-16.609-10.936-26.01-10.936c-9.513,0.00-18.985,3.707-26.235,11.141L 23.818,224.01L 138.322,341.596z" />
<glyph unicode="&#xf0002;" d="M 474.348,224.00L 328.776,340.449l0.00-58.225 c-262.021,0.00-291.133-145.572-291.133-174.684C 95.877,224.00, 299.674,165.755, 328.776,165.755l0.00-58.204 
		L 474.348,224.00z" />
<glyph unicode="&#xf0003;" d="M 337.459,452.444L 84.06,199.014L 228.905,54.231L 482.324,307.64 		zM 31.99,138.056L 30.843,66.857L 29.665-4.444L 100.987-3.236L 172.227-2.14L 102.124,67.922 		z" />
<glyph unicode="&#xf0004;" d="M 465.244,388.413c-31.181-6.769-60.037-20.05-86.60-39.864c-26.563-19.845-48.916-45.978-67.031-78.387
		c-18.104-32.492-27.167-72.735-27.167-120.771c 1.659-28.662, 9.267-58.624, 22.753-89.815L 448.819,59.576 c 6.728,10.138, 12.206,21.699, 16.425,34.816
		c 4.219,13.056, 6.359,26.737, 6.359,41.062c0.00,9.298-2.14,19.825-6.359,31.621c-4.209,11.817-9.687,22.344-16.425,31.601l-73.349,0.00 
		c-1.72,15.217,0.00,30.792, 5.10,46.817c 5.018,15.995, 12.605,30.986, 22.733,44.902c 10.117,13.896, 22.303,26.327, 36.669,37.294
		c 14.326,10.947, 30.351,18.985, 48.067,24.023L 465.244,388.413z M 204.769,388.413c-31.191-6.769-60.068-20.05-86.62-39.864
		c-26.552-19.845-48.927-45.978-67.052-78.387c-18.094-32.492-27.136-72.735-27.136-120.771c 1.649-28.662, 9.247-58.624, 22.743-89.815l 141.619,0.00 
		c 6.728,10.138, 12.227,21.699, 16.445,34.816c 4.239,13.056, 6.359,26.737, 6.359,41.062c0.00,9.298-2.12,19.825-6.359,31.621
		c-4.229,11.817-9.718,22.344-16.445,31.601l-73.339,0.00 c-1.731,15.217,0.00,30.792, 5.059,46.817c 5.069,15.995, 12.636,30.986, 22.764,44.902
		c 10.117,13.896, 22.333,26.327, 36.68,37.294c 14.346,10.947, 30.362,18.985, 48.056,24.023L 204.769,388.413z" />
<glyph unicode="&#xf0005;" d="M 433.357,288.051L 370.012,433.879L 27.822,281.027l 82.391-189.635l0.00-77.281 l 373.965,0.00 L 484.178,288.051 L 433.357,288.051 z M 110.213,259.789L 98.632,254.822l 11.581-27.709
		l0.00-70.564 L 63.027,269.425L 357.059,395.827l 45.015-107.776l-29.45,0.00 l-29.962,71.68l-166.666-71.68l-65.782,0.00 L 110.213,259.789 z M 456.745,41.605L 137.421,41.605 L 137.421,260.239 l 319.314,0.00 
		L 456.735,41.605 z M 429.64,232.704L 164.557,232.704 l0.00-163.533 l 265.083,0.00 L 429.64,232.704 z" />
<glyph unicode="&#xf0006;" d="M 350.423,279.757l0.00-111.534 l 130.509-88.023L 480.932,367.80 L 350.423,279.757z M 302.766,350.628L 52.47,350.628 c-11.848,0.00-21.402-10.056-21.402-22.405l0.00-208.486 
		c0.00-12.36, 9.554-22.405, 21.402-22.405l 250.296,0.00 c 11.837,0.00, 21.432,10.035, 21.432,22.405l0.00,208.486 C 324.198,340.572, 314.614,350.628, 302.766,350.628z" />
<glyph unicode="&#xf0007;" d="M 317.747,280.771c-44.851,0.00-81.213-33.823-81.213-75.602s 36.362-75.643, 81.213-75.643c 44.831,0.00, 81.224,33.864, 81.224,75.643
		S 362.578,280.771, 317.747,280.771z M 317.747,160.778c-26.317,0.00-47.647,19.876-47.647,44.39c0.00,24.494, 21.33,44.36, 47.647,44.36
		c 26.327,0.00, 47.667-19.866, 47.667-44.36C 365.425,180.664, 344.084,160.778, 317.747,160.778z M 191.826,344.443l-22.743,24.381l-66.765,0.00 l-22.743-24.381L 38.072,344.443 
		l0.00-265.257 l 435.855,0.00 L 473.928,344.443 L 191.826,344.443 z M 175.012,291.482l-62.024,0.00 c-7.342,0.00-13.312,5.55-13.312,12.37c0.00,6.851, 5.97,12.37, 13.312,12.37l 62.024,0.00 
		c 7.342,0.00, 13.322-5.519, 13.322-12.37C 188.334,297.032, 182.354,291.482, 175.012,291.482z M 317.747,106.363c-58.522,0.00-106.138,44.319-106.138,98.806
		c0.00,54.477, 47.616,98.796, 106.138,98.796c 58.491,0.00, 106.158-44.319, 106.158-98.796C 423.905,150.682, 376.238,106.363, 317.747,106.363z M 451.226,300.206
		c0.00-3.594-3.113-6.533-7.045-6.533L 427.827,293.673 c-3.871,0.00-7.045,2.939-7.045,6.533l0.00,15.247 c0.00,3.625, 3.174,6.554, 7.045,6.554l 16.364,0.00 
		c 3.932,0.00, 7.045-2.929, 7.045-6.554L 451.236,300.206 z" />
<glyph unicode="&#xf0008;" d="M 473.907,430.049c-18.934,18.954-41.964-4.106-41.964-4.106S 316.744,310.723, 293.663,287.662
			c-23.04-23.04-88.791-49.50-88.791-49.50l 75.684-75.622c0.00,0.00, 27.914,64.256, 50.954,87.306c 23.06,23.03, 138.26,138.281, 138.26,138.281
			S 492.82,411.167, 473.907,430.049zM 118.753,162.54C 83.763,78.838, 89.518,31.181, 30.648,16.65c 226.877-39.444, 226.877,122.849, 226.877,122.849
			l-75.663,75.684C 181.862,215.183, 135.936,203.643, 118.753,162.54z" />
<glyph unicode="&#xf0009;" d="M 476.262,56.893L 35.697,56.893 c-9.298,0.00-16.916-7.608-16.916-17.019l0.00-33.874 c0.00-9.257, 7.619-16.855, 16.916-16.855L 476.262-10.854 
			c 9.318,0.00, 16.957,7.598, 16.957,16.855l0.00,33.874 C 493.22,49.285, 485.581,56.893, 476.262,56.893zM 190.136,165.54l 136.581,0.00 l 25.784-63.181l 105.196,0.00 L 306.985,458.865l-94.536,0.00 L 61.716,102.359l 103.158,0.00 L 190.136,165.54z M 259.00,342.589
			l 39.404-100.618l-79.421,0.00 L 259.00,342.589z" />
<glyph unicode="&#xf000a;" d="M 354.683,458.598L 157.266,458.598 c-18.903,0.00-34.161-15.319-34.161-34.181l0.00-400.845 c0.00-18.883, 15.258-34.181, 34.161-34.181l 197.417,0.00 
		c 18.903,0.00, 34.202,15.299, 34.202,34.181L 388.884,424.417 C 388.884,443.279, 373.576,458.598, 354.683,458.598z M 233.667,429.486l 44.677,0.00 l0.00-14.848 l-44.677,0.00 L 233.667,429.486 z
		 M 256.041,7.322c-12.042,0.00-21.821,9.738-21.821,21.791c0.00,12.032, 9.779,21.77, 21.821,21.77c 11.94,0.00, 21.74-9.738, 21.74-21.77
		C 277.78,17.06, 267.981,7.322, 256.041,7.322z M 363.305,64.614L 148.726,64.614 L 148.726,383.334 l 214.579,0.00 L 363.305,64.614 z" />
<glyph unicode="&#xf000b;" d="M 161.70-9.861c 17.285,0.00, 34.519,6.728, 47.636,20.244L 417.382,224.00L 209.336,437.658
		c-26.102,26.798-68.618,26.962-94.925,0.317c-26.276-26.624-26.44-69.98-0.297-96.84L 228.219,224.00L 114.125,106.803
		c-26.143-26.798-25.979-70.144, 0.297-96.758C 127.498-3.226, 144.64-9.841, 161.70-9.861z" />
<glyph unicode="&#xf000c;" d="M 397.548,10.025c 26.296,26.644, 26.46,69.98, 0.317,96.778L 283.781,224.00l 114.094,117.135
		c 26.143,26.86, 25.979,70.216-0.317,96.84c-26.296,26.644-68.792,26.481-94.925-0.317L 94.607,224.00l 208.015-213.637
		c 13.107-13.486, 30.372-20.224, 47.626-20.224C 367.37-9.841, 384.451-3.226, 397.548,10.025z" />
<glyph unicode="&#xf000d;" d="M 47.616,318.392l0.00-188.764 l 79.36,0.00 l 177.203-140.677L 304.179,459.049 L 126.976,318.392L 47.616,318.392 z M 397.425,396.841c-10.455,11.11-27.259,11.11-37.765,0.00
		c-10.342-11.141-10.342-29.215, 0.041-40.346l-0.041,0.00 c 34.284-36.598, 51.384-84.357, 51.384-132.311c0.00-48.128-17.06-96.00-51.384-132.659
		c-10.342-11.162-10.342-29.204, 0.041-40.346c 5.181-5.55, 12.042-8.315, 18.883-8.315c 6.799,0.00, 13.681,2.785, 18.842,8.315
		c 44.595,47.729, 66.959,110.51, 66.959,173.015C 464.384,286.587, 441.979,349.225, 397.425,396.841z" />
<glyph unicode="&#xf000e;" d="M 231.803,306.299c0.00,13.394, 10.865,24.166, 24.177,24.166c 13.384,0.00, 24.238-10.783, 24.238-24.166
		c0.00-13.373-10.865-24.207-24.238-24.207C 242.657,282.092, 231.803,292.925, 231.803,306.299z M 255.98,369.234c-34.775,0.00-62.925-28.18-62.925-62.935
		c0.00-34.775, 28.14-62.935, 62.925-62.935c 34.816,0.00, 62.935,28.16, 62.935,62.935C 318.925,341.053, 290.796,369.234, 255.98,369.234z M 105.943,309.033
		c0.00-98.775, 116.50-174.766, 125.86-288.317l0.00-4.844 c0.00-13.353, 10.865-24.228, 24.177-24.228c 13.384,0.00, 24.238,10.875, 24.238,24.228l0.00,4.844 
		c 9.964,113.551, 125.819,189.542, 125.819,288.317c0.00,81.377-67.144,147.333-150.057,147.333C 173.138,456.356, 105.943,390.41, 105.943,309.033z
		 M 255.98,407.951c 56.197,0.00, 101.704-45.517, 101.704-101.652s-45.496-101.642-101.704-101.642c-56.105,0.00-101.642,45.507-101.642,101.642
		S 199.885,407.951, 255.98,407.951z" />
<glyph unicode="&#xf000f;" d="M 61.317-12.739c0.00,45.445,0.00,80.978, 42.056,110.664c 5.10,53.555-77.722,66.98-84.122,159.57
		c-1.28,47.77, 36.956,101.908, 93.696,101.908c 100.024,0.00, 121.057-95.498, 140.196-95.498c 13.384,0.00, 36.28,97.26, 138.875,95.498
		c 69.458-1.157, 100.721-47.718, 100.721-106.537c0.00-66.99-89.876-108.37-80.978-156.099c 42.076-27.382, 42.076-64.061, 42.076-109.496L 61.317-12.728 z
		 M 112.282,318.054c-39.475,0.00-47.759-43.684-47.759-53.565c0.00-69.304, 82.176-104.827, 82.176-151.982c 33.116,5.837, 67.564,7.537, 103.26,7.537
		c 36.915,0.00, 80.937-3.482, 117.197-7.537c0.00,52.941, 80.323,80.916, 80.323,151.398c0.00,38.461-25.436,54.159-64.317,54.159
		c-85.402,0.00-96.276-101.335-129.997-100.731C 216.156,214.999, 200.264,318.054, 112.282,318.054z M 406.702,28.621c0.00,29.143-27.402,37.898-63.078,44.237
		c-12.104,2.918-72.663,5.857-89.242,5.857c-10.844,0.00-78.356-3.523-91.095-6.42c-29.358-4.055-54.804-14.541-54.804-43.684L 406.702,28.611 z
		 M 300.984,422.308c0.00-19.804-35.123-96.113-47.821-114.719c-12.759,16.886-45.916,93.768-45.916,114.719c0.00,21.545, 20.398,38.441, 48.425,38.441
		C 281.16,460.749, 300.984,444.457, 300.984,422.308z M 239.759,411.259c0.00-9.902, 6.339-25.641, 12.759-46.008l 1.26,0.00 c 7.045,20.961, 12.083,36.106, 12.083,46.008
		c0.00,11.622-3.82,15.718-12.698,15.718C 242.924,426.977, 239.759,422.871, 239.759,411.259z" />
<glyph unicode="&#xf0010;" d="M 432.66,241.265c 25.661,2.099, 43.059,13.64, 49.777,29.307c-9.257-5.622-37.99-11.766-53.852-5.939
		c-0.799,3.697-1.649,7.209-2.509,10.373c-12.083,43.919-53.514,79.34-96.87,75.059c 3.502,1.403, 7.066,2.703, 10.629,3.86
		c 4.782,1.71, 32.778,6.236, 28.355,15.995c-3.697,8.612-37.908-6.513-44.38-8.468c 8.509,3.154, 22.589,8.602, 24.105,18.268
		c-13.046-1.741-25.825-7.864-35.738-16.722c 3.584,3.799, 6.277,8.428, 6.861,13.404c-34.765-21.955-55.081-66.273-71.526-109.24
		c-12.882,12.38-24.33,22.108-34.58,27.535c-28.774,15.278-63.201,31.212-117.207,51.057c-1.669-17.705, 8.827-41.216, 39.086-56.852
		c-6.574,0.85-18.545-1.075-28.16-3.338c 3.932-20.244, 16.671-36.966, 51.22-45.046c-15.80-1.004-23.931-4.567-31.355-12.206
		c 7.199-14.111, 24.719-30.669, 56.248-27.269c-35.062-14.94-14.295-42.67, 14.244-38.533c-48.64-49.736-125.379-46.111-169.441-4.475
		c 115.016-155.136, 365.097-91.75, 402.35,57.661c 27.914-0.225, 44.339,9.585, 54.508,20.378C 468.316,233.39, 445.03,236.165, 432.66,241.265z" />
<glyph unicode="&#xf0011;" d="M 261.663,20.173c 40.079-40.09, 105.144-40.09, 145.244,0.00
		c 24.904,24.822, 34.396,59.249, 28.242,91.392c 10.578,5.366, 20.081,11.581, 27.955,17.48c 0.922,0.655, 4.844,3.379, 5.796,4.137
		c 4.403,3.625, 7.24,9.062, 7.24,15.196c0.00,5.827-2.54,11.121-6.676,14.633l-80.701,66.232c-3.318,2.775-7.619,4.444-12.319,4.444
		c-5.304,0.00-10.097-2.068-13.578-5.376c-1.382-1.362-13.496-13.711-13.496-13.711c-8.458-8.417-22.057-8.417-30.464,0.00L 236.503,296.704
		c-8.376,8.397-8.376,22.016,0.00,30.423l 13.404,13.363c 3.543,3.482, 5.581,8.356, 5.581,13.64c0.00,5.263-2.038,9.964-5.356,13.435l-69.222,83.22
		c-3.604,4.301-9.083,7.117-15.124,7.117c-6.502,0.00-12.145-3.154-15.78-7.885l-1.178-1.577c-15.043-20.255-34.703-52.408-34.703-82.627
		c0.00-83.21, 186.296-268.452, 269.056-268.452c 1.556,0.00, 3.144,0.082, 4.577,0.082c 1.495-15.329-3.697-31.109-15.442-42.875
		c-21.023-20.91-55.081-20.91-76.104,0.00L 161.065,192.86c-28.662,28.539-75.039,28.539-103.741,0.00c-28.641-28.57-28.641-74.793,0.00-103.311l 44.36-43.54
		c 9.585-9.482, 25.016-9.482, 34.662,0.00c 9.441,9.544, 9.441,24.893,0.00,34.478l-44.462,43.448c-9.462,9.554-9.462,24.965,0.00,34.499
		c 9.585,9.462, 25.057,9.462, 34.662,0.00L 261.663,20.173z" />
<glyph unicode="&#xf0012;" d="M 162.007,457.226c-21.883,0.00-39.557-17.357-39.557-38.84l0.00-408.146 
		c0.00-10.732, 8.919-19.466, 19.804-19.466c 5.417,0.00, 10.363,2.15, 13.916,5.622l 51.261,50.115c 7.70,7.598, 20.296,7.598, 27.955,0.00l 51.18-50.115
		c 3.564-3.471, 8.499-5.622, 13.957-5.622c 10.844,0.00, 19.763,8.745, 19.763,19.466L 320.287,389.212 c0.00,11.284, 8.899,19.436, 19.784,19.436l 24.74,0.00 
		c 13.681,0.00, 24.74,10.885, 24.74,24.30c0.00,13.425-11.059,24.279-24.74,24.279L 162.007,457.226 z" />
<glyph unicode="&#xf0013;" d="M 369.572,106.414L 279.45,106.414 c-64.082,0.00-74.301,28.559-74.301,55.04
		c0.00,12.575, 0.758,33.239, 1.536,58.655l 150.538,0.00 c 22.456,0.00, 65.495,9.277, 65.495,50.78c0.00,41.441-19.876,68.577-46.438,68.577L 208.548,339.466 
		c-0.164,59.812-4.024,119.419-62.065,119.419c-24.023,0.00-43.479-9.923-51.722-34.58c-10.742-32.389-7.916-70.277-7.782-103.967
		c 0.02-6.441, 0.082-12.872, 0.082-19.323c 0.082-22.047, 0.543-44.268, 0.625-66.458c 0.082-23.91, 0.102-47.739, 0.102-71.66
		c0.00-133.745, 120.76-171.602, 143.944-171.602c 23.163,0.00, 113.879-2.171, 130.284-2.171c 16.425,0.00, 63.416,4.311, 63.416,52.244
		C 425.431,89.211, 392.09,106.414, 369.572,106.414z" />
<glyph unicode="&#xf0014;" d="M 372.90,306.575l-79.596,0.00 l0.00,48.681 c0.00,18.258, 12.964,22.518, 22.098,22.518
		c 9.165,0.00, 56.177,0.00, 56.177,0.00L 371.579,458.076 l-77.343,0.307c-85.903,0.00-105.421-59.914-105.421-98.273l0.00-53.545 l-49.715,0.00 l0.00-82.77 l 49.715,0.00 
		c0.00-106.209,0.00-234.189,0.00-234.189l 104.489,0.00 c0.00,0.00,0.00,129.28,0.00,234.189l 70.482,0.00 L 372.90,306.575z" />
<glyph unicode="&#xf0015;" d="M 458.455,364.943c-1.382,0.184-2.621,0.799-4.024,0.799L 57.569,365.742 c-0.87,0.00-1.597-0.41-2.458-0.492l 200.919-178.964
			L 458.455,364.943zM 480.87,346.88L 337.94,220.733l 141.066-123.433c 2.212,4.024, 3.758,8.417, 3.758,13.302L 482.765,337.398 
			C 482.775,340.767, 481.925,343.89, 480.87,346.88zM 31.437,348.344c-1.413-3.379-2.212-7.055-2.212-10.936l0.00-226.796 c0.00-4.096, 0.973-7.977, 2.57-11.52l 142.418,122.092
			L 31.437,348.344zM 255.969,148.357l-60.406,53.811L 56.064,82.565c 0.553-0.02, 0.983-0.297, 1.505-0.297l 395.592,0.00 L 316.518,201.80
			L 255.969,148.357z" />
<glyph unicode="&#xf0016;" d="M 167.526-11.878L 167.526,108.493 C 83.968,122.614, 20.111,195.43, 20.111,282.962c0.00,97.556, 79.36,176.916, 176.876,176.916l 117.965,0.00 
			c 97.577,0.00, 176.916-79.36, 176.916-176.916c0.00-94.126-73.943-171.336-166.697-176.65L 167.526-11.878z M 196.987,400.896
			c-65.044,0.00-117.924-52.91-117.924-117.944c0.00-65.044, 52.879-117.975, 117.924-117.975l 29.501,0.00 l0.00-58.931 l 78.582,58.931l 9.882,0.00 
			c 65.024,0.00, 117.944,52.941, 117.944,117.975c0.00,65.034-52.92,117.944-117.944,117.944L 196.987,400.896 z" />
<glyph unicode="&#xf0017;" d="M 466.739,79.647l-82.555,82.555c 15.421,27.259, 24.361,58.685, 24.361,92.18c0.00,103.66-84.316,187.996-188.006,187.996
		c-103.66,0.00-187.996-84.337-187.996-187.996c0.00-103.608, 84.337-188.006, 187.996-188.006c 38.779,0.00, 74.844,11.837, 104.765,32.031l 80.097-80.108
		c 8.499-8.438, 19.558-12.687, 30.679-12.687c 11.10,0.00, 22.20,4.25, 30.659,12.687C 483.697,35.246, 483.697,62.669, 466.739,79.647z M 90.378,254.392
		c0.00,71.762, 58.399,130.12, 130.161,130.12c 71.782,0.00, 130.161-58.358, 130.161-130.12c0.00-71.772-58.378-130.171-130.161-130.171
		C 148.777,124.221, 90.378,182.62, 90.378,254.392z" />
</font>
</defs>
</svg>
